Race Gurram (Kurradu) (2009) Hindi Dubbed 720p HDRip x264 AAC

.
Download .Torrent Magnet
Torren Name: Race Gurram (Kurradu) (2009) Hindi Dubbed 720p HDRip x264 AAC
Org Name: Race Gurram (Kurradu)
File size: 1.04 GB
Categories: Hindi Dubbed Movies
Uploader: TodayPk.se
Seeders: 66 Leechers: 16 Downloaded: 486
Last scrape: 3 April 2018 05:42:45


ebff283becf5d0f55d55d198c11928ba.png




General 
Complete name                            : www.movcr.com - Race Gurram (Kurradu) (2009) Hindi Dubbed 720p HDRip x264 AAC - MovCr.mkv 
Format                                   : Matroska 
Format version                           : Version 4 / Version 2 
File size                                : 1.04 GiB 
Duration                                 : 1 h 49 min 
Overall bit rate                         : 1 361 kb/s 
Movie name                               : www.movcr.com 
Encoded date                             : UTC 2018-03-31 05:20:52 
Writing application                      : mkvmerge v9.5.0 ('Quiet Fire') 64bit 
Writing library                          : libebml v1.3.4 + libmatroska v1.4.5 

Video 
ID                                       : 1 
Format                                   : AVC 
Format/Info                              : Advanced Video Codec 
Format profile                           : [email protected] 
Format settings                          : CABAC / 3 Ref Frames 
Format settings, CABAC                   : Yes 
Format settings, RefFrames               : 3 frames 
Codec ID                                 : V_MPEG4/ISO/AVC 
Duration                                 : 1 h 49 min 
Bit rate                                 : 1 234 kb/s 
Width                                    : 1 280 pixels 
Height                                   : 720 pixels 
Display aspect ratio                     : 16:9 
Frame rate mode                          : Constant 
Frame rate                               : 25.000 FPS 
Color space                              : YUV 
Chroma subsampling                       : 4:2:0 
Bit depth                                : 8 bits 
Scan type                                : Progressive 
Bits/(Pixel*Frame)                       : 0.054 
Stream size                              : 969 MiB (91%) 
Title                                    : www.movcr.com 
Default                                  : Yes 
Forced                                   : No 
Color range                              : Limited 
Color primaries                          : BT.709 
Transfer characteristics                 : BT.709 
Matrix coefficients                      : BT.709 

Audio 
ID                                       : 2 
Format                                   : AAC 
Format/Info                              : Advanced Audio Codec 
Format profile                           : LC 
Codec ID                                 : A_AAC-2 
Duration                                 : 1 h 49 min 
Bit rate                                 : 126 kb/s 
Channel(s)                               : 2 channels 
Channel positions                        : Front: L R 
Sampling rate                            : 44.1 kHz 
Frame rate                               : 43.066 FPS (1024 SPF) 
Compression mode                         : Lossy 
Stream size                              : 98.6 MiB (9%) 
Title                                    : www.movcr.com 
Language                                 : Hindi 
Default                                  : Yes 
Forced                                   : No 













>