Non-Stop (2014) Dual Audio Hindi 720p BluRay ESubs

.
Download .Torrent Magnet
Torren Name: Non-Stop (2014) Dual Audio Hindi 720p BluRay ESubs
Org Name: Non-Stop
File size: 884.19 MB
Categories: Hindi Dubbed Movies
Uploader: TodayPk.se
Seeders: 121 Leechers: 160 Downloaded: 188
Last scrape: 4 April 2018 03:31:09


ebff283becf5d0f55d55d198c11928ba.png





An air marshal springs into action during a transatlantic flight after receiving a series of text messages demanding $150 million into an off-shore account, or someone will die every 20 minutes. 


Movie Info: 

Genres: Action, Mystery, Thriller 
Directed by: Jaume Collet-Serra 
Writers: John W. Richardson, Christopher Roach 
Stars Cast: Liam Neeson, Julianne Moore, Scoot McNairy 
IMDb: http://www.imdb.com/title/tt2024469/ 
Language: Hindi + English 

Video 
ID : 1 
Format : AVC 
Format/Info : Advanced Video Codec 
Format profile : [email protected] 
Format settings : CABAC / 4 Ref Frames 
Format settings, CABAC : Yes 
Format settings, ReFrames : 4 frames 
Codec ID : V_MPEG4/ISO/AVC 
Duration : 1 h 46 min 
Bit rate : 966 kb/s 
Width : 1 280 pixels 
Height : 536 pixels 
Display aspect ratio : 2.40:1 
Frame rate mode : Constant 
Frame rate : 23.976 (24000/1001) FPS 
Original frame rate : 23.976 (23976/1000) FPS 
Color space : YUV 
Chroma subsampling : 4:2:0 
Bit depth : 8 bits 
Scan type : Progressive 
Bits/(Pixel*Frame) : 0.059 
Stream size : 737 MiB (83%) 

Audio #1 (Hindi) 
ID : 2 
Format : MPEG Audio 
Format version : Version 1 
Format profile : Layer 3 
Format settings : Joint stereo / MS Stereo 
Codec ID : A_MPEG/L3 
Codec ID/Hint : MP3 
Duration : 1 h 46 min 
Bit rate mode : Variable 
Bit rate : 96.0 kb/s 
Channel(s) : 2 channels 
Sampling rate : 48.0 kHz 
Frame rate : 41.667 FPS (1152 SPF) 
Compression mode : Lossy 
Stream size : 73.6 MiB (8%) 

Audio #2 (English) 
ID : 3 
Format : AAC 
Format/Info : Advanced Audio Codec 
Format profile : LC 
Codec ID : A_AAC-2 
Duration : 1 h 46 min 
Bit rate : 93.8 kb/s 
Channel(s) : 2 channels 
Channel positions : Front: L R 
Sampling rate : 48.0 kHz 
Frame rate : 46.875 FPS (1024 SPF) 
Compression mode : Lossy 
Stream size : 71.5 MiB (8%) 


Screenshots: 







>