The Shape Of Water (2017) 720p BluRay x264 Dual Audio [Hindi DD5.1 - English DD5.1]

.
Download .Torrent Magnet
Torren Name: The Shape Of Water (2017) 720p BluRay x264 Dual Audio [Hindi DD5.1 - English DD5.1]
Org Name: The Shape Of Water
File size: 1.48 GB
Categories: English
Uploader: TodayPk.se
Seeders: 96 Leechers: 123 Downloaded: 792
Last scrape: 7 April 2018 04:55:03


ebff283becf5d0f55d55d198c11928ba.png








The Shape Of Water (2017) 720p BluRay x264 Dual Audio [Hindi DD5.1 - English DD5.1] 



Code:

Format                                   : Matroska 
Format version                           : Version 4 / Version 2 
File size                                : 1.48 GiB 
Duration                                 : 2 h 3 min 
Overall bit rate                         : 1 714 kb/s 
Movie name                               : The Shape Of Water (2017) 720p BluRay x264 Dual Audio [Hindi DD5.1 - English DD5.1] 

Video 
ID                                       : 1 
Duration                                 : 2 h 3 min 
Bit rate                                 : 1 249 kb/s 
Width                                    : 1 280 pixels 
Height                                   : 688 pixels 
Display aspect ratio                     : 1.85:1 
Frame rate mode                          : Constant 
Frame rate                               : 23.976 (24000/1001) FPS 
Color space                              : YUV 
Chroma subsampling                       : 4:2:0 
Bit depth                                : 8 bits 
Scan type                                : Progressive 
Bits/(Pixel*Frame)                       : 0.059 
Stream size                              : 1.08 GiB (73%) 
Title                                    : ~Ranvijay~ 
Default                                  : Yes 
Forced                                   : No 

Audio #1 
ID                                       : 2 
Format                                   : AC-3 
Format/Info                              : Audio Coding 3 
Codec ID                                 : A_AC3 
Duration                                 : 2 h 3 min 
Bit rate mode                            : Constant 
Bit rate                                 : 224 kb/s 
Channel(s)                               : 6 channels 
Channel positions                        : Front: L C R, Side: L R, LFE 
Sampling rate                            : 48.0 kHz 
Frame rate                               : 31.250 FPS (1536 SPF) 
Bit depth                                : 16 bits 
Compression mode                         : Lossy 
Stream size                              : 198 MiB (13%) 
Title                                    : ~Ranvijay~ 
Language                                 : Hindi 
Service kind                             : Complete Main 
Default                                  : Yes 
Forced                                   : No 

Audio #2 
ID                                       : 3 
Format                                   : AC-3 
Format/Info                              : Audio Coding 3 
Codec ID                                 : A_AC3 
Duration                                 : 2 h 3 min 
Bit rate mode                            : Constant 
Bit rate                                 : 224 kb/s 
Channel(s)                               : 6 channels 
Channel positions                        : Front: L C R, Side: L R, LFE 
Sampling rate                            : 48.0 kHz 
Frame rate                               : 31.250 FPS (1536 SPF) 
Bit depth                                : 16 bits 
Compression mode                         : Lossy 
Stream size                              : 198 MiB (13%) 
Title                                    : ~Ranvijay~ 
Language                                 : English 
Service kind                             : Complete Main 
Default                                  : No 
Forced                                   : No 

Text #1 
ID                                       : 4 
Format                                   : PGS 
Muxing mode                              : zlib 
Codec ID                                 : S_HDMV/PGS 
Codec ID/Info                            : Picture based subtitle format used on BDs/HD-DVDs 
Duration                                 : 1 h 47 min 
Bit rate                                 : 1 234 b/s 
Count of elements                        : 338 
Stream size                              : 971 KiB (0%) 
Title                                    : ~Ranvijay~ 
Language                                 : English 
Default                                  : Yes 
Forced                                   : No 

Text #2 
ID                                       : 5 
Format                                   : PGS 
Muxing mode                              : zlib 
Codec ID                                 : S_HDMV/PGS 
Codec ID/Info                            : Picture based subtitle format used on BDs/HD-DVDs 
Duration                                 : 2 h 2 min 
Bit rate                                 : 21.7 kb/s 
Count of elements                        : 3856 
Stream size                              : 19.1 MiB (1%) 
Title                                    : ~Ranvijay~ 
Language                                 : English 
Default                                  : No 
Forced                                   : No 

Text #3 
ID                                       : 6 
Format                                   : PGS 
Muxing mode                              : zlib 
Codec ID                                 : S_HDMV/PGS 
Codec ID/Info                            : Picture based subtitle format used on BDs/HD-DVDs 
Duration                                 : 2 h 1 min 
Bit rate                                 : 23.2 kb/s 
Count of elements                        : 2825 
Stream size                              : 20.1 MiB (1%) 
Title                                    : ~Ranvijay~ 
Language                                 : Hindi 
Default                                  : No 
Forced                                   : No 

Menu 
00:00:00.000                             : en:00:00:00.000 
00:06:24.467                             : en:00:06:24.467 
00:12:54.774                             : en:00:12:54.774 
00:18:32.987                             : en:00:18:32.987 
00:23:45.591                             : en:00:23:45.591 
00:29:39.653                             : en:00:29:39.653 
00:35:29.836                             : en:00:35:29.836 
00:39:30.535                             : en:00:39:30.535 
00:42:42.435                             : en:00:42:42.435 
00:48:34.036                             : en:00:48:34.036 
00:52:26.935                             : en:00:52:26.935 
00:57:30.197                             : en:00:57:30.197 
01:01:52.542                             : en:01:01:52.542 
01:07:35.551                             : en:01:07:35.551 
01:12:13.496                             : en:01:12:13.496 
01:17:50.791                             : en:01:17:50.791 
01:21:17.122                             : en:01:21:17.122 
01:26:05.911                             : en:01:26:05.911 
01:32:48.480                             : en:01:32:48.480 
01:37:18.750                             : en:01:37:18.750 
01:43:24.115                             : en:01:43:24.115 
01:46:06.610                             : en:01:46:06.610 
01:50:31.667                             : en:01:50:31.667 
01:58:34.858                             : en:01:58:34.858
















>