The Hurricane Heist 2018 720p HC HDRip x264 Dual Audio [Hindi - English]

.
Download .Torrent Magnet
Torren Name: The Hurricane Heist 2018 720p HC HDRip x264 Dual Audio [Hindi - English]
Org Name: The Hurricane Heist
File size: 931.66 MB
Categories: Movies
Uploader: TodayPk.se
Seeders: 373 Leechers: 152 Downloaded: 3860
Last scrape: 7 April 2018 05:55:31


ebff283becf5d0f55d55d198c11928ba.png





General 
Format                                   : Matroska 
Format version                           : Version 4 / Version 2 
File size                                : 932 MiB 
Duration                                 : 1 h 42 min 
Overall bit rate                         : 1 269 kb/s 

Video 
ID                                       : 1 
Format                                   : AVC 
Format/Info                              : Advanced Video Codec 
Format profile                           : [email protected] 
Format settings                          : CABAC / 4 Ref Frames 
Format settings, CABAC                   : Yes 
Format settings, RefFrames               : 4 frames 
Codec ID                                 : V_MPEG4/ISO/AVC 
Duration                                 : 1 h 42 min 
Bit rate                                 : 1 050 kb/s 
Width                                    : 1 280 pixels 
Height                                   : 536 pixels 
Display aspect ratio                     : 2.40:1 
Frame rate mode                          : Constant 
Frame rate                               : 29.970 (30000/1001) FPS 
Color space                              : YUV 
Chroma subsampling                       : 4:2:0 
Bit depth                                : 8 bits 
Scan type                                : Progressive 
Bits/(Pixel*Frame)                       : 0.051 
Stream size                              : 766 MiB (82%) 
Writing library                          : x264 core 155 r2893 b00bcaf 
Default                                  : Yes 
Forced                                   : No 

Audio #1 
ID                                       : 2 
Format                                   : AAC 
Format/Info                              : Advanced Audio Codec 
Format profile                           : LC 
Codec ID                                 : A_AAC-2 
Duration                                 : 1 h 42 min 
Bit rate                                 : 128 kb/s 
Channel(s)                               : 2 channels 
Channel positions                        : Front: L R 
Sampling rate                            : 44.1 kHz 
Frame rate                               : 43.066 FPS (1024 SPF) 
Compression mode                         : Lossy 
Stream size                              : 94.0 MiB (10%) 
Language                                 : Hindi 
Default                                  : No 
Forced                                   : No 

Audio #2 
ID                                       : 3 
Format                                   : AAC 
Format/Info                              : Advanced Audio Codec 
Format profile                           : HE-AAC / LC 
Format settings                          : Explicit 
Codec ID                                 : A_AAC-2 
Duration                                 : 1 h 42 min 
Bit rate                                 : 96.0 kb/s 
Channel(s)                               : 2 channels 
Channel positions                        : Front: L R 
Sampling rate                            : 48.0 kHz / 24.0 kHz 
Frame rate                               : 23.438 FPS (1024 SPF) 
Compression mode                         : Lossy 
Stream size                              : 69.5 MiB (7%) 
Language                                 : English 
Default                                  : No 
Forced                                   : No 











>