GG Bond & Hatching 2012 720p WEB-DL x264 Dual Audio [Hindi 2.0 - Chinese 2.0]

.
Download .Torrent Magnet
Torren Name: GG Bond & Hatching 2012 720p WEB-DL x264 Dual Audio [Hindi 2.0 - Chinese 2.0]
Org Name: GG Bond & Hatching
File size: 926.94 MB
Categories: Hindi
Uploader: TodayPk.se
Seeders: 59 Leechers: 124 Downloaded: 49
Last scrape: 10 April 2018 11:15:51


ebff283becf5d0f55d55d198c11928ba.png





General 
Format : Matroska 
Format version : Version 4 / Version 2 
File size : 927 MiB 
Duration : 1 h 22 min 
Overall bit rate : 1 575 kb/s 


Video 
ID : 1 
Format : AVC 
Format/Info : Advanced Video Codec 
Format profile : [email protected] 
Format settings : CABAC / 4 Ref Frames 
Format settings, CABAC : Yes 
Format settings, RefFrames : 4 frames 
Codec ID : V_MPEG4/ISO/AVC 
Duration : 1 h 22 min 
Bit rate : 1 400 kb/s 
Width : 1 280 pixels 
Height : 720 pixels 
Display aspect ratio : 16:9 
Frame rate mode : Constant 
Frame rate : 24.000 FPS 
Color space : YUV 
Chroma subsampling : 4:2:0 
Bit depth : 8 bits 
Scan type : Progressive 
Bits/(Pixel*Frame) : 0.063 
Stream size : 793 MiB (86%) 
Writing library : x264 core 155 r2893 b00bcaf 
Default : Yes 
Forced : No 


Audio #1 
ID : 2 
Format : AAC 
Format/Info : Advanced Audio Codec 
Format profile : LC 
Codec ID : A_AAC-2 
Duration : 1 h 22 min 
Bit rate : 128 kb/s 
Channel(s) : 2 channels 
Channel positions : Front: L R 
Sampling rate : 48.0 kHz 
Frame rate : 46.875 FPS (1024 SPF) 
Compression mode : Lossy 
Stream size : 75.3 MiB (8%) 
Language : Hindi 
Default : Yes 
Forced : No 

Audio #2 
ID : 3 
Format : AAC 
Format/Info : Advanced Audio Codec 
Format profile : LC 
Codec ID : A_AAC-2 
Duration : 1 h 22 min 
Bit rate : 96.0 kb/s 
Channel(s) : 2 channels 
Channel positions : Front: L R 
Sampling rate : 44.1 kHz 
Frame rate : 43.066 FPS (1024 SPF) 
Compression mode : Lossy 
Stream size : 56.5 MiB (6%) 
Language : Chinese 
Default : No 
Forced : No 















>