Aranyaka 1994 Hindi 720p WEB-HD x264 AAC 2.0

.
Download .Torrent Magnet
Torren Name: Aranyaka 1994 Hindi 720p WEB-HD x264 AAC 2.0
Org Name: Aranyaka
File size: 945.01 MB
Categories: Hindi
Uploader: TodayPk.se
Seeders: 140 Leechers: 253 Downloaded: 176
Last scrape: 10 April 2018 11:22:17


ebff283becf5d0f55d55d198c11928ba.png





General 
Format : Matroska 
Format version : Version 4 / Version 2 
File size : 945 MiB 
Duration : 1 h 23 min 
Overall bit rate : 1 584 kb/s 

Video 
ID : 1 
Format : AVC 
Format/Info : Advanced Video Codec 
Format profile : [email protected] 
Format settings : CABAC / 4 Ref Frames 
Format settings, CABAC : Yes 
Format settings, RefFrames : 4 frames 
Codec ID : V_MPEG4/ISO/AVC 
Duration : 1 h 23 min 
Bit rate : 1 500 kb/s 
Width : 1 280 pixels 
Height : 720 pixels 
Display aspect ratio : 16:9 
Frame rate mode : Constant 
Frame rate : 25.000 FPS 
Color space : YUV 
Chroma subsampling : 4:2:0 
Bit depth : 8 bits 
Scan type : Progressive 
Bits/(Pixel*Frame) : 0.065 
Stream size : 886 MiB (94%) 
Writing library : x264 core 155 r2893 b00bcaf 
Default : Yes 
Forced : No 

Audio 
ID : 2 
Format : AAC 
Format/Info : Advanced Audio Codec 
Format profile : LC 
Codec ID : A_AAC-2 
Duration : 1 h 23 min 
Bit rate : 96.0 kb/s 
Channel(s) : 2 channels 
Channel positions : Front: L R 
Sampling rate : 48.0 kHz 
Frame rate : 46.875 FPS (1024 SPF) 
Compression mode : Lossy 
Stream size : 57.3 MiB (6%) 
Default : Yes 
Forced : No 














>