Argo 2012 720p Esub BluRay Dual Audio English Hindi GOPISAHI

.
Download .Torrent Magnet
Torren Name: Argo 2012 720p Esub BluRay Dual Audio English Hindi GOPISAHI
Org Name: Argo
File size: 666.26 MB
Categories: Movies
Uploader: TodayPk.se
Seeders: 179 Leechers: 142 Downloaded: 264
Last scrape: 10 April 2018 11:26:01


ebff283becf5d0f55d55d198c11928ba.png


Format : Matroska 
Format version : Version 4 / Version 2 
File size : 666 MiB 
Duration : 2 h 0 min 
Overall bit rate : 773 kb/s 
Movie name : Argo 2012 GOPISAHI 

Video 
Format : AVC 
Codec ID : V_MPEG4/ISO/AVC 
Duration : 2 h 0 min 
Bit rate : 600 kb/s 
Width : 1 280 pixels 
Height : 528 pixels 
Display aspect ratio : 2.40:1 
Frame rate mode : Constant 
Frame rate : 23.976 (24000/1001) FPS 
Stream size : 516 MiB (77%) 
Title : GOPISAHI 
Writing library : x264 core 148 r2708 86b7198 

Audio #1 
Format : AAC 
Duration : 2 h 0 min 
Bit rate : 84.3 kb/s 
Channel(s) : 6 channels 
Channel positions : Front: L C R, Side: L R, LFE 
Sampling rate : 44.1 kHz 
Frame rate : 43.066 FPS (1024 SPF) 
Compression mode : Lossy 
Stream size : 72.5 MiB (11%) 
Title : GOPISAHI 
Language : English 

Audio #2 
Format : AAC 
Duration : 2 h 0 min 
Bit rate : 87.1 kb/s 
Channel(s) : 6 channels 
Channel positions : Front: L C R, Side: L R, LFE 
Sampling rate : 44.1 kHz 
Frame rate : 43.066 FPS (1024 SPF) 
Compression mode : Lossy 
Stream size : 74.9 MiB (11%) 
Title : GOPISAHI 
Language : Hindi 

Text 
Language : English 



>